it-swarm.dev

FFMPEG를 사용하여 QuickTime으로 읽을 수있는 동영상 인코딩

다음 명령을 사용하여 이미지 시퀀스를 인코딩하려고합니다.

ffmpeg.exe -i %d.png -f mp4 -vcodec h264 test.mp4

그러나 QuickTime에서이 파일을 열지 못하거나 때때로 검은 색 동영상을 재생하는 동안이 동영상은 VLC 플레이어에서 훌륭하게 재생됩니다. QuickTime에서 잘 재생하는 방법에 대한 제안이 있으십니까?

출력은 다음과 같습니다.

ffmpeg.exe -i %d.png -f mp4 -vcodec libx264 13.mp4
ffmpeg version N-49044-g89afa63 Copyright (c) 2000-2013 the FFmpeg developers
  built on Jan 19 2013 20:36:06 with gcc 4.7.2 (GCC)
  configuration: --enable-gpl --enable-version3 --disable-w32threads --enable-av
isynth --enable-bzlib --enable-fontconfig --enable-frei0r --enable-gnutls --enab
le-libass --enable-libbluray --enable-libcaca --enable-libfreetype --enable-libg
sm --enable-libmp3lame --enable-libopencore-amrnb --enable-libopencore-amrwb --e
nable-libopenjpeg --enable-libopus --enable-librtmp --enable-libschroedinger --e
nable-libspeex --enable-libtheora --enable-libtwolame --enable-libvo-aacenc --en
able-libvo-amrwbenc --enable-libvorbis --enable-libvpx --enable-libx264 --enable
-libxavs --enable-libxvid --enable-zlib --enable-filter=frei0r
  libavutil      52. 15.100 / 52. 15.100
  libavcodec     54. 89.100 / 54. 89.100
  libavformat    54. 61.101 / 54. 61.101
  libavdevice    54.  3.102 / 54.  3.102
  libavfilter     3. 32.101 /  3. 32.101
  libswscale      2.  2.100 /  2.  2.100
  libswresample   0. 17.102 /  0. 17.102
  libpostproc    52.  2.100 / 52.  2.100
[image2 @ 0221b940] max_analyze_duration 5000000 reached at 5000000 microseconds

Input #0, image2, from '%d.png':
  Duration: 00:01:19.36, start: 0.000000, bitrate: N/A
    Stream #0:0: Video: png, rgb24, 639x480, 25 fps, 25 tbr, 25 tbn, 25 tbc
[libx264 @ 0221edc0] using cpu capabilities: MMX2 SSE2Fast SSSE3 FastShuffle SSE
4.2 AVX
[libx264 @ 0221edc0] profile High 4:4:4 Predictive, level 3.0, 4:4:4 8-bit
[libx264 @ 0221edc0] 264 - core 129 r2230 1cffe9f - H.264/MPEG-4 AVC codec - Cop
yleft 2003-2012 - http://www.videolan.org/x264.html - options: cabac=1 ref=3 deb
lock=1:0:0 analyse=0x3:0x113 me=hex subme=7 psy=1 psy_rd=1.00:0.00 mixed_ref=1 m
e_range=16 chroma_me=1 trellis=1 8x8dct=1 cqm=0 deadzone=21,11 fast_pskip=1 chro
ma_qp_offset=4 threads=6 lookahead_threads=1 sliced_threads=0 nr=0 decimate=1 in
terlaced=0 bluray_compat=0 constrained_intra=0 bframes=3 b_pyramid=2 b_adapt=1 b
_bias=0 direct=1 weightb=1 open_gop=0 weightp=2 keyint=250 keyint_min=25 scenecu
t=40 intra_refresh=0 rc_lookahead=40 rc=crf mbtree=1 crf=23.0 qcomp=0.60 qpmin=0
 qpmax=69 qpstep=4 ip_ratio=1.40 aq=1:1.00
Output #0, mp4, to '13.mp4':
  Metadata:
    encoder         : Lavf54.61.101
    Stream #0:0: Video: h264 ([33][0][0][0] / 0x0021), yuv444p, 639x480, q=-1--1
, 12800 tbn, 25 tbc
Stream mapping:
  Stream #0:0 -> #0:0 (png -> libx264)
Press [q] to stop, [?] for help
frame=   76 fps=0.0 q=28.0 size=       3kB time=00:00:00.96 bitrate=  22.3kbits/
frame=  156 fps=155 q=28.0 size=       7kB time=00:00:04.16 bitrate=  14.7kbits/
frame=  219 fps=145 q=28.0 size=      12kB time=00:00:06.68 bitrate=  14.1kbits/
frame=  283 fps=141 q=28.0 size=      16kB time=00:00:09.24 bitrate=  14.2kbits/
frame=  352 fps=140 q=28.0 size=      25kB time=00:00:12.00 bitrate=  17.4kbits/
38
itamarb

픽셀 형식을 변경해보십시오. -pix_fmt yuv420p

80
pogorskiy

또한 일련의 png 파일을 입력으로 사용하여 비디오를 만들었습니다. 내가 알게 된 것은 Quicktime Player 7이 mp4 파일을 모든 프레임 속도에서 잘 재생할 것입니다. 속도 "-r"값이 9 미만인 경우 Quicktime Player 10에 약간의 블로킹이있는 녹색 창이 표시됩니다. 다음과 같은 값을 지정하여 입력 속도가 재생 속도보다 낮을 수 있습니다.

ffmpeg -r inputRate -i %d.png -qscale 1 -r 9 output.mp4

참고 : 나는 ffmpeg 0.5를 사용했습니다.

1
user1766438